Details for this torrent 

ThePirateBay Blocked on Your Network Visit Our Proxy Site >> ProxyBay And Try one of the proxy sites


We Need Your Help Please Donate And Support US

S15E02 Gladiators v Lexplorers. revittony
Type:
Video > TV shows
Files:
1
Size:
344.08 MiB (360790569 Bytes)
Tag(s):
tt1294009
Uploaded:
2019-09-18 11:35:00 GMT
By:
revittony1 Trusted
Seeders:
1
Leechers:
0
Comments
0  

Info Hash:
33EA3EDB536F5C35324E86A8B11B1E6C715F892D




(Problems with magnets links are fixed by upgrading your torrent client!)
 https://www.imdb.com/title/tt1294009


 
Format : MPEG-4 
Format profile : Base Media 
Codec ID : isom (isom/iso2/avc1/mp41) 
Overall bit rate mode : Variable 
Overall bit rate : 1 681 kb/s 


Video 
ID : 1 
Format : AVC 
Format/Info : Advanced Video Codec 
Format profile : [email protected] 
Format settings : CABAC / 4 Ref Frames 
Format settings, CABAC : Yes 
Format settings, Reference frames : 4 frames 
Format settings, GOP : M=8, N=96 
Codec ID : avc1 
Codec ID/Info : Advanced Video Coding 
Duration : 28 min 59 s 
Bit rate : 1 548 kb/s 
Width : 960 pixels 
Height : 540 pixels 
Display aspect ratio : 16:9 
Frame rate mode : Constant 
Frame rate : 25.000 FPS 
Color space : YUV 
Chroma subsampling : 4:2:0 
Bit depth : 8 bits 
Scan type : Progressive 
Bits/(Pixel*Frame) : 0.119 
Stream size : 321 MiB (92%) 
Color range : Limited 
Color primaries : BT.709 
Transfer characteristics : BT.709 
Matrix coefficients : BT.709 
Codec configuration box : avcC 

Audio 
ID : 2 
Format : AAC LC 
Format/Info : Advanced Audio Codec Low Complexity 
Codec ID : mp4a-40-2 
Duration : 28 min 59 s 
Bit rate mode : Variable 
Bit rate : 128 kb/s 
Maximum bit rate : 132 kb/s 
Channel(s) : 2 channels 
Channel layout : L R 
Sampling rate : 48.0 kHz 
Frame rate : 46.875 FPS (1024 SPF) 
Compression mode : Lossy 
Stream size : 26.5 MiB (8%) 
Language : English 
Default : Yes 
Alternate group : 1